[Login] or [Signup]
Login
Username:
Password:
[Signup]
[Recover Account]


Poll


You must be logged in to view polls



Torrent Details For "Teen Cup Chaa (2018) - Bengali Web Series Rip [Mp4 - AAC3(5.1Ch)] - 385 MB "

Teen Cup Chaa (2018) - Bengali Web Series Rip [Mp4 - AAC3(5.1Ch)] - 385 MB

Download this torrent | Magnet Download
Health:
Seeds: 84
Leechers: 26
Completed: 137 
Last Checked: 06-12-2018 12:06:19
External Torrent
Update Stats
Download Magnet


Poster


Watch-Free-HD     Download

Details
Name:Teen Cup Chaa (2018) - Bengali Web Series Rip [Mp4 - AAC3(5.1Ch)] - 385 MB
Description:
   Teen Cup Chaa (2018) - Bengali Web Series Rip
[Mp4 - AAC3(5.1Ch)] - 385 MB    
 





General
Format                                   : MPEG-4
Format profile                           : Base Media
Codec ID                                 : isom (isom)
File size                                : 385 MiB
Duration                                 : 1 h 4 min

Video
ID                                       : 1
Format                                   : AVC
Format/Info                              : Advanced Video Codec
Format profile                           : [email protected]
Format settings                          : CABAC / 4 Ref Frames
Format settings, CABAC                   : Yes
Format settings, RefFrames               : 4 frames
Codec ID                                 : avc1
Codec ID/Info                            : Advanced Video Coding
Duration                                 : 1 h 4 min
Bit rate                                 : 700 kb/s
Maximum bit rate                         : 2 307 kb/s
Width                                    : 720 pixels
Height                                   : 408 pixels
Display aspect ratio                     : 16:9
Frame rate mode                          : Constant
Frame rate                               : 25.000 FPS
Color space                              : YUV
Chroma subsampling                       : 4:2:0
Bit depth                                : 8 bits
Scan type                                : Progressive
Bits/(Pixel*Frame)                       : 0.095
Stream size                              : 324 MiB (84%)

Audio
ID                                       : 2
Format                                   : AAC LC SBR
Commercial name                          : HE-AAC
Format settings                          : Explicit
Codec ID                                 : mp4a-40-2
Duration                                 : 1 h 4 min
Bit rate mode                            : Variable
Bit rate                                 : 128 kb/s
Maximum bit rate                         : 137 kb/s
Channel(s)                               : 6 channels
Channel layout                           : C L R Ls Rs LFE
Sampling rate                            : 48.0 kHz
Stream size                              : 59.2 MiB (15%)


Thumbnail



Category:Movies > Bengali
Lang:Bengali  Bengali
Total Size:385.01 MB
Info Hash:4ee1fba2773b1d6fcb5cb9dd4993172bf4bb71fa
Added By:CyberTron
Date Added:05-12-2018 15:46:09
Views:272
Hits:26

Download Torrent

Ratings:Not Yet Rated (Log in to rate it)

  


Tracker:
udp://tracker.trackerfix.com:80/announce


File List: 


Comments

No comments still posted

Powered by 10 Hamsters v2-svn -|- Page Generated In 0.677758 secs.
-|- RSS FEED
Theme By: Nikkbu