[Login] or [Signup]
Login
Username:
Password:
[Signup]
[Recover Account]


Poll


You must be logged in to view polls



Torrent Details For "Bidaay Byomkesh 2018 1.50 GB Bengali Movie WEB-DL 720p [x264 AAC]"

Bidaay Byomkesh 2018 1.50 GB Bengali Movie WEB-DL 720p [x264 AAC]

Download this torrent | Magnet Download
Health:
Seeds: 30
Leechers: 23
Completed:
Last Checked: 07-12-2018 08:33:36
External Torrent
Update Stats
Download Magnet


Poster


iMDB
Title: Bidai Byomkesh
Year: 2018
Votes: 25
Rating: 6.4/10
Language: Bengali
Director: Debaloy Bhattacharya

Cast:
Rupankar Bagchi as Krishnendu Malo
Rahul Banerjee as Ajit Banerjee
Bidipta Chakraborty as
Abir Chatterjee as Byomkesh Bakshi / Satyaki Bakshi
Sujoy Prasad Chatterjee as Subimal Kumar Mondal
Sohini Sarkar as Satyabati / Abantika
Joy Sengupta as Abhimanyu Bakshi
Arindam Sil as


Watch-Free-HD     Download

Details
Name:Bidaay Byomkesh 2018 1.50 GB Bengali Movie WEB-DL 720p [x264 AAC]
Description:


[size="200"]Bidaay Byomkesh 2018 1.50 GB Bengali Movie WEB-DL 720p [x264 AAC].mp4[/size]


[color='fuchsia'][size='medium']http://www.imdb.com/title/tt8427166/[/size][/color]




[code]
General
Complete name                            : Bidaay Byomkesh 2018 1.50 GB Bengali Movie WEB-DL 720p [x264 AAC].mp4
Format                                   : MPEG-4
Format profile                           : QuickTime
Codec ID                                 : qt   0000.02 (qt  ;)
File size                                : 1.54 GiB
Duration                                 : 3 h 0 min
Overall bit rate mode                    : Variable
Overall bit rate                         : 1 219 kb/s
Writing application                      : Lavf55.33.100
Video
ID                                       : 1
Format                                   : AVC
Format/Info                              : Advanced Video Codec
Format profile                           : [email protected]
Format settings                          : CABAC / 4 Ref Frames
Format settings, CABAC                   : Yes
Format settings, RefFrames               : 4 frames
Codec ID                                 : avc1
Codec ID/Info                            : Advanced Video Coding
Duration                                 : 3 h 0 min
Bit rate                                 : 1 000 kb/s
Width                                    : 1 280 pixels
Height                                   : 720 pixels
Display aspect ratio                     : 16:9
Frame rate mode                          : Constant
Frame rate                               : 25.000 FPS
Color space                              : YUV
Chroma subsampling                       : 4:2:0
Bit depth                                : 8 bits
Scan type                                : Progressive
Bits/(Pixel*Frame)                       : 0.043
Stream size                              : 1.26 GiB (82%)
Writing library                          : x264 core 132
Encoding settings                        : cabac=1 / ref=1 / deblock=1:0:0 / analyse=0x3:0x113 / me=hex / subme=2 / psy=1 / psy_rd=1.00:0.00 / mixed_ref=0 / me_range=16 / chroma_me=1 / trellis=1 / 8x8dct=1 / cqm=0 / deadzone=21,11 / fast_pskip=1 / chroma_qp_offset=0 / threads=2 / lookahead_threads=1 / sliced_threads=0 / nr=0 / decimate=1 / interlaced=0 / bluray_compat=0 / constrained_intra=0 / bframes=2 / b_pyramid=2 / b_adapt=1 / b_bias=0 / direct=1 / weightb=1 / open_gop=0 / weightp=1 / keyint=25 / keyint_min=13 / scenecut=40 / intra_refresh=0 / rc_lookahead=1 / rc=abr / mbtree=1 / bitrate=1000 / ratetol=0.1 / qcomp=0.60 / qpmin=1 / qpmax=35 / qpstep=2 / ip_ratio=1.40 / aq=1:1.00
Language                                 : English
Audio
ID                                       : 2
Format                                   : AAC
Format/Info                              : Advanced Audio Codec
Format profile                           : LC
Codec ID                                 : mp4a-40-2
Duration                                 : 3 h 0 min
Bit rate mode                            : Variable
Bit rate                                 : 216 kb/s
Maximum bit rate                         : 256 kb/s
Channel(s)                               : 2 channels
Channel positions                        : Front: L R
Sampling rate                            : 44.1 kHz
Frame rate                               : 43.066 FPS (1024 SPF)
Compression mode                         : Lossy
Stream size                              : 280 MiB (18%)
Language                                 : English
Default                                  : Yes
Alternate group                          : 1
[/code]





















Category:Movies > Bengali
Lang:Bengali  Bengali
Total Size:1.54 GB
Info Hash:0b783d46c5196190222445c974baf9203b86089e
Added By:nlpmovie
Date Added:07-12-2018 08:15:18
Views:161
Hits:21

Download Torrent

Ratings:Not Yet Rated (Log in to rate it)


Tracker:
udp://tracker.opentrackr.org:1337/announce


File List: 


Comments

No comments still posted

Powered by 10 Hamsters v2-svn -|- Page Generated In 0.864203 secs.
-|- RSS FEED
Theme By: Nikkbu